[Amateur] ChristineYoung E03 Yvon

Post

Comments Off on [Amateur] ChristineYoung E03 Yvon   |   AIR


ChristineYoung.E03.Yvon.XXX.MOV-TBP

Cover:

Titel: ChristineYoung E03 Yvon
Genre: Amateur
Sprache/n: Englisch
Größe: 79,7 MB
Parts: 1 Dateien

File: tbp.cye03yvon.mov
Size: 83567897 bytes (79,70 MiB), duration: 00:07:23, avg.bitrate: 1509 kb/s
Audio: aac, 32000 Hz, stereo (eng)
Video: h264, yuv420p, 640×480, 29,97 fps(r) (eng)
by-blackbaba

NFO:

Code:

THE.BEST.PORN.GIVESChristineYoung.E03.Yvon.XXX.MOVTBPWEBSITE : www.ChristineYoung.comTYPE : mov
SIZE : 6 x 15MBComplete name : tbp.cye03yvon.mov
Format : MPEG4
Format profile : QuickTime
Codec ID : qtFile size : 79.7 MiB
Duration : 7mn 23s
Overall bit rate : 1 509 Kbps
Writing application : Lavf56.4.101
ID : 1
Format : AVC
Format/Info : Advanced Video Codec
Format profile : BaselineL3.0
Format settings CABAC : No
Format settings ReFrames : 3 frames
Codec ID : avc1
Codec ID/Info : Advanced Video Coding
Duration : 7mn 23s
Bit rate : 1 500 Kbps
Width : 640 pixels
Height : 480 pixels
Display aspect ratio : 4:3
Frame rate mode : Constant
Frame rate : 29.970 fps
Color space : YUV
Chroma subsampling : 4:2:0
Bit depth : 8 bits
Scan type : Progressive
Bits/PixelFrame : 0.163
Stream size : 79.4 MiB 100
Writing library : x264 core 115
Encoding settings : cabac0 / ref3 / deblock1:0:0 / analyse0x1:0x111 / mehex / subme7 / psy1 / psyrd1.00:0.00 / mixedref1 / merange16 / chromame1 / trellis1 / 8x8dct0 / cqm0 / deadzone2111 / fastpskip1 / chromaqpoffset2 / threads16 / slicedthreads0 / nr0 / decimate1 / interlaced0 / bluraycompat0 / constrainedintra0 / bframes0 / weightp0 / keyint250 / keyintmin25 / scenecut40 / intrarefresh0 / rclookahead40 / rcabr / mbtree1 / bitrate1500 / ratetol1.0 / qcomp0.60 / qpmin10 / qpmax51 / qpstep4 / ipratio1.41 / aq1:1.00
Language : English
ID : 2
Format : AAC
Format/Info : Advanced Audio Codec
Format profile : LC
Codec ID : 40
Duration : 7mn 22s
Bit rate mode : Constant
Bit rate : 2 250 bps
Channels : 2 channels
Channel positions : Front: L R
Sampling rate : 32.0 KHz
Compression mode : Lossy
Stream size : 122 KiB 0
Language : English

Alle Mirror sind untereinander kompatibel!

Share-online.biz

Share-online.biz

Uploaded.net

Uploaded.net

Join AppBakr, Intel Capital, and other leading funding experts to share how you can survive withOUT raising stacks of cash.