[Amateur] Lesbian Rehab

Post

Comments Off on [Amateur] Lesbian Rehab   |   AIR


Lesbian.Rehab.XXX.720P.WEBRIP.X264-TBP

Cover:

Titel: Lesbian Rehab
Genre: Amateur
Sprache/n: Englisch
Größe: 2718.15 MB
Parts: 25 Dateien

File: tbp.lesbianrehabs.mp4
Size: 2815231845 bytes (2,62 GiB), duration: 01:43:22, avg.bitrate: 3631 kb/s
Audio: aac, 44100 Hz, stereo (und)
Video: h264, yuv420p, 1280×720, 29,97 fps(r) (und)
by-blackbaba

NFO:

Code:

THE.BEST.PORN.GIVESLesbian.Rehab.XXX.720P.WEBRIP.X264TBPWEBSITE : http://www.data18.com/movies/1125379TYPE :SIZE : 57 x 50MBComplete name : tbp.lesbianrehabs.mp4
Format : MPEG4
Format profile : Base Media
Codec ID : isom
File size : 2.62 GiB
Duration : 1h 43mn
Overall bit rate : 3 631 Kbps
Writing application : Lavf56.4.101
ID : 1
Format : AVC
Format/Info : Advanced Video Codec
Format profile : MainL3.1
Format settings CABAC : Yes
Format settings ReFrames : 4 frames
Codec ID : avc1
Codec ID/Info : Advanced Video Coding
Duration : 1h 43mn
Bit rate : 3 500 Kbps
Width : 1 280 pixels
Height : 720 pixels
Display aspect ratio : 16:9
Frame rate mode : Variable
Frame rate : 29.970 fps
Minimum frame rate : 29.382 fps
Maximum frame rate : 29.970 fps
Color space : YUV
Chroma subsampling : 4:2:0
Bit depth : 8 bits
Scan type : Progressive
Bits/PixelFrame : 0.127
Stream size : 2.52 GiB 96
Writing library : x264 core 115
Encoding settings : cabac1 / ref3 / deblock1:0:0 / analyse0x1:0x111 / mehex / subme7 / psy1 / psyrd1.00:0.00 / mixedref1 / merange16 / chromame1 / trellis1 / 8x8dct0 / cqm0 / deadzone2111 / fastpskip1 / chromaqpoffset2 / threads16 / slicedthreads0 / nr0 / decimate1 / interlaced0 / bluraycompat0 / constrainedintra0 / bframes3 / bpyramid2 / badapt1 / bbias0 / direct1 / weightb1 / opengop0 / weightp2 / keyint250 / keyintmin25 / scenecut40 / intrarefresh0 / rclookahead40 / rcabr / mbtree1 / bitrate3500 / ratetol1.0 / qcomp0.60 / qpmin10 / qpmax51 / qpstep4 / ipratio1.41 / aq1:1.00
ID : 2
Format : AAC
Format/Info : Advanced Audio Codec
Format profile : LC
Codec ID : 40
Duration : 1h 43mn
Bit rate mode : Constant
Bit rate : 128 Kbps
Channels : 2 channels
Channel positions : Front: L R
Sampling rate : 44.1 KHz
Compression mode : Lossy
Stream size : 94.6 MiB 4
REVIEWURL : http://www.cduniverse.com/productinfo.asppid9264695

Alle Mirror sind untereinander kompatibel!

Share-online.biz

Share-online.biz

Uploaded.net

Uploaded.net

But to get mold to not keep regrowing would require the inside of the car completely dry out.