[HD] Seduced By Mommy 10 1080p WEBRiP

Post

Comments Off on [HD] Seduced By Mommy 10 1080p WEBRiP   |   AIR


Seduced.By.Mommy.10.XXX.1080p.WEBRiP.x264-TBP

These moms show their young ones a thing or two about getting down and dirty! Watch how they coach up their daughters in the art of eating pussy and fucking!

Duration : 1h 46mn
Genre: Teen, Lesbian, All Sex, MILF
Format: MKV
Bitrate: 133kbps
Size: 6308mb – RAR-Files: 26

Language: English
Year: 2010
Actors: Aaliyah Love, (bio), Taylor Whyte, Ashlyn Molloy, Abby Cross

Screenshots (click):

NFO:

Code:

                  THE.BEST.PORN.GIVES

Seduced.By.Mommy.10.XXX.1080p.WEBRiP.x264-TBP

WEBSITE    : http://www.pornstarnetwork.com/dvd/seduced-by-mommy-volume-10-18358.html
TYPE        :  x264
SIZE        : 66 x 100MB

General
Complete name                            : tbp.sedbymommy10.mp4
Format                                  : MPEG-4
Format profile                          : Base Media
Codec ID                                : isom
File size                                : 6.06 GiB
Duration                                : 1h 46mn
Overall bit rate                        : 8 133 Kbps
Writing application                      : Lavf56.4.101

Video
ID                                      : 1
Format                                  : AVC
Format/Info                              : Advanced Video Codec
Format profile                          : High@L4.0
Format settings, CABAC                  : Yes
Format settings, ReFrames                : 4 frames
Codec ID                                : avc1
Codec ID/Info                            : Advanced Video Coding
Duration                                : 1h 46mn
Bit rate                                : 8 000 Kbps
Width                                    : 1 920 pixels
Height                                  : 1 080 pixels
Display aspect ratio                    : 16:9
Frame rate mode                          : Variable
Frame rate                              : 29.970 fps
Minimum frame rate                      : 13.843 fps
Maximum frame rate                      : 29.970 fps
Color space                              : YUV
Chroma subsampling                      : 4:2:0
Bit depth                                : 8 bits
Scan type                                : Progressive
Bits/(Pixel*Frame)                      : 0.129
Stream size                              : 5.96 GiB (98%)
Writing library                          : x264 core 142
Encoding settings                        : cabac=1 / ref=3 / deblock=1:0:0 / analyse=0x3:0x113 / me=hex / subme=7 / psy=1 / psy_rd=1.00:0.00 / mixed_ref=1 / me_range=16 / chroma_me=1 / trellis=1 / 8x8dct=1 / cqm=0 / deadzone=21,11 / fast_pskip=1 / chroma_qp_offset=-2 / threads=6 / lookahead_threads=1 / sliced_threads=0 / nr=0 / decimate=1 / interlaced=0 / bluray_compat=0 / constrained_intra=0 / bframes=3 / b_pyramid=2 / b_adapt=1 / b_bias=0 / direct=1 / weightb=1 / open_gop=0 / weightp=2 / keyint=100 / keyint_min=10 / scenecut=40 / intra_refresh=0 / rc_lookahead=40 / rc=abr / mbtree=1 / bitrate=8000 / ratetol=1.0 / qcomp=0.60 / qpmin=0 / qpmax=69 / qpstep=4 / ip_ratio=1.40 / aq=1:1.00

Audio
ID                                      : 2
Format                                  : AAC
Format/Info                              : Advanced Audio Codec
Format profile                          : LC
Codec ID                                : 40
Duration                                : 1h 46mn
Bit rate mode                            : Constant
Bit rate                                : 128 Kbps
Channel(s)                              : 2 channels
Channel positions                        : Front: L R
Sampling rate                            : 44.1 KHz
Compression mode                        : Lossy
Stream size                              : 97.6 MiB (2%)

 wanted : zilch

Share-Online.biz

http://share-links.biz/_3oe0linida2

Uploaded.net

http://share-links.biz/_3qe0lincazh

Dateien sind untereinander kompatibel und SFV gecheckt!

Container: .rsdf / .ccf / .dlc / Click’n’Load
Passwort: keins
Packer: WinRAR 3.93 – 5% Wiederherstellungsinfo – Nur 1 mal gepackt!

The route as originally proposed would have gone through Nebraska and crossed about 250 miles of the Ogallala Aquifer, the nation’s largest underground source for drinking water and crop irrigation — a prospect that made lots of Nebraskan farmers, ranchers, and other folks unhappy.