[Other] Fifty Shades Of Dylan Ryan

Post

Comments Off on [Other] Fifty Shades Of Dylan Ryan   |   AIR


Fifty.Shades.Of.Dylan.Ryan.XXX.1080p.WEBRIP.x264-TBP

Cover:

Titel: Fifty Shades Of Dylan Ryan
Genre: Anal
Sprache/n:
Video Stream:
Audio Stream: Stereo
Video Codec: MPEG-4 H.264 / AVC
Größe: 6929.03 MB
Sample: tb…lan.sample.mp4
Screen:

File: tbp.50dylan.mp4
Size: 7189428635 bytes (6.70 GiB), duration: 01:58:31, avg.bitrate: 8088 kb/s
Audio: aac, 44100 Hz, stereo (und)
Video: h264, yuv420p, 1920×1080, 29.97 fps(r) (und)
havefun

nfo:

THE.BEST.PORN.GIVES
Fifty.Shades.Of.Dylan.Ryan.XXX.1080p.WEBRIP.x264-TBP
WEBSITE : http://www.data18.com/movies/1108065
TYPE : x264
SIZE : 72 x 100MB
Complete name : tbp.50dylan.mp4
Format : MPEG-4
Format profile : Base Media
Codec ID : isom
File size : 6.70 GiB
Duration : 1h 58mn
Overall bit rate : 8 088 Kbps
Writing application : Lavf56.4.101
ID : 1
Format : AVC
Format/Info : Advanced Video Codec
Format profile : High@L4.0
Format settings, CABAC : Yes
Format settings, ReFrames : 4 frames
Codec ID : avc1
Codec ID/Info : Advanced Video Coding
Duration : 1h 58mn
Bit rate : 8 000 Kbps
Width : 1 920 pixels
Height : 1 080 pixels
Display aspect ratio : 16:9
Frame rate mode : Variable
Frame rate : 29.970 fps
Minimum frame rate : 29.470 fps
Maximum frame rate : 29.970 fps
Color space : YUV
Chroma subsampling : 4:2:0
Bit depth : 8 bits
Scan type : Progressive
Bits/(Pixel*Frame) : 0.129
Stream size : 6.59 GiB (98%)
Writing library : x264 core 115
Encoding settings : cabac=1 / ref=3 / deblock=1:0:0 / analyse=0x3:0x113 / me=hex / subme=7 / psy=1 / psy_rd=1.00:0.00 / mixed_ref=1 / me_range=16 / chroma_me=1 / trellis=1 / 8x8dct=1 / cqm=0 / deadzone=21,11 / fast_pskip=1 / chroma_qp_offset=-2 / threads=16 / sliced_threads=0 / nr=0 / decimate=1 / interlaced=0 / bluray_compat=0 / constrained_intra=0 / bframes=3 / b_pyramid=2 / b_adapt=1 / b_bias=0 / direct=1 / weightb=1 / open_gop=0 / weightp=2 / keyint=250 / keyint_min=25 / scenecut=40 / intra_refresh=0 / rc_lookahead=40 / rc=abr / mbtree=1 / bitrate=8000 / ratetol=1.0 / qcomp=0.60 / qpmin=10 / qpmax=51 / qpstep=4 / ip_ratio=1.41 / aq=1:1.00
ID : 2
Format : AAC
Format/Info : Advanced Audio Codec
Format profile : LC
Codec ID : 40
Duration : 1h 58mn
Bit rate mode : Constant
Bit rate : 118 Kbps
Channel(s) : 2 channels
Channel positions : Front: L R
Sampling rate : 44.1 KHz
Compression mode : Lossy
Stream size : 99.7 MiB (1%)
REVIEW-URL :


Download Share-online.biz
Linkcrypt.ws


Download Uploaded.net
Linkcrypt.ws

It's a good idea to read up on homeopathy in Wikipedia-try not to let people mix those two terms.