[HD] David Nudes Cami Nude Dusting And Vacuuming (2015) @ 1080P

Post

Comments Off on [HD] David Nudes Cami Nude Dusting And Vacuuming (2015) @ 1080P   |   AIR


David-Nudes.15.02.10.Cami.Nude.Dusting.And.Vacuuming.XXX .1080P.x264-TBP

Genre: Solo
Format: MKV
Auflösung: 1920×1080 Pixel
Bitrate: 9405kb/s
Größe: 799MB – RAR-Dateien: 4

Länge: 11 Minuten
Sprache: Englisch
Jahr: 2015

Screenshots:

Code:

http://www.imagebam.com/gallery/d1p2…y1712037cnjvnw

NFO:

Code:

THE.BEST.PORN.GIVES

David-Nudes.14.02.10.Cami.Nude.Dusting.And.Vacuuming.XXX.1080P.x264-TBP

WEBSITE    : www.David-Nudes.com
TYPE        :
SIZE        : 17 x 50MB

General
Complete name                            : tbp.dn140210cami.mp4
Format                                  : MPEG-4
Format profile                          : Base Media
Codec ID                                : isom
File size                                : 796 MiB
Duration                                : 11mn 35s
Overall bit rate mode                    : Variable
Overall bit rate                        : 9 602 Kbps
Writing application                      : Lavf56.4.101

Video
ID                                      : 1
Format                                  : AVC
Format/Info                              : Advanced Video Codec
Format profile                          : Main@L4.2
Format settings, CABAC                  : Yes
Format settings, ReFrames                : 3 frames
Codec ID                                : avc1
Codec ID/Info                            : Advanced Video Coding
Duration                                : 11mn 35s
Bit rate mode                            : Variable
Bit rate                                : 9 405 Kbps
Maximum bit rate                        : 10 000 Kbps
Width                                    : 1 920 pixels
Height                                  : 1 080 pixels
Display aspect ratio                    : 16:9
Frame rate mode                          : Constant
Frame rate                              : 29.970 fps
Standard                                : NTSC
Color space                              : YUV
Chroma subsampling                      : 4:2:0
Bit depth                                : 8 bits
Scan type                                : Progressive
Bits/(Pixel*Frame)                      : 0.151
Stream size                              : 780 MiB (98%)

Audio
ID                                      : 2
Format                                  : AAC
Format/Info                              : Advanced Audio Codec
Format profile                          : LC
Codec ID                                : 40
Duration                                : 11mn 35s
Bit rate mode                            : Constant
Bit rate                                : 192 Kbps
Channel(s)                              : 2 channels
Channel positions                        : Front: L R
Sampling rate                            : 48.0 KHz
Compression mode                        : Lossy
Stream size                              : 15.7 MiB (2%)

REVIEW-URL  :

Greetz to our good friends in GUSH
And the others which make this fun

Uploaded.net

http://linkcrypt.ws/dir/kzzxpuu202mx757

Share-Online.biz

http://linkcrypt.ws/dir/46830kan0194f03

Files sind untereinander kompatibel und SFV gecheckt!

Container: .rsdf / .ccf / .dlc / Click’n’Load
Passwort: keins
Packer: WinRAR 3.93 – 5% Wiederherstellungsinfo – Nur 1 mal gepackt

Can we then allow PAS to make whatever statement they want to make in this spirit you have expressed? PAS ban beer, Elton John, Santa hats, and Valentine’s Day if that makes them happy.